Announcement

Collapse
No announcement yet.

Video issue samples

Collapse
This is a sticky topic.
X
X
  • Filter
  • Time
  • Show
Clear All
new posts

    Video issue samples

    Hi,

    I start a new thread to collect video issue samples...

    HowTo extract a part off a MKV
    Download 'MKVToolNix'
    => https://www.bunkus.org/videotools/mkvtoolnix/
    ==> https://www.bunkus.org/videotools/mk...downloads.html
    Windows => https://www.bunkus.org/videotools/mk...s.html#windows
    I use the *.7z which means it's the portable version which I don't have to install...

    We need the 'mkvmerge GUI'
    => mmg.exe

    I attach a small HowTo as PDF (it's really quick and easy to extract at part off the original MKV)


    Determine technical and tag data for video and audio at the original MKV
    http://mediaarea.net/en/MediaInfo
    I prefer to use 'MediaInfo Lite' (Integrate with MS-Windows shell (drag 'n' drop, and Context menu))
    http://www.codecguide.com/download_other.htm
    (http://www.majorgeeks.com/files/deta...info_lite.html)


    Example
    I know the scene which is stutters is from 00:01:30 to 00:01:33 but the problem is, that mkvmerge GUI seems to use another time-code than e.g. vlc so I add 5 sec in front of and after
    => 00:01:25-00:01:38
    and the result is ~19 sec instead of 13 sec and the microstutter are at ~ sec 2-6...
    ==> http://www.file-upload.net/download-...c_2-6.mkv.html
    USE Click image for larger version

Name:	Download.jpg
Views:	10
Size:	22.1 KB
ID:	439885 to download the file

    Original
    Code:
    Overall bit rate mode                    : Variable
    Overall bit rate                         : 13.4 Mbps
    Encoded date                             : UTC 2012-11-04 07:31:54
    Writing application                      : mkvmerge v5.8.0 ('No Sleep / Pillow') built on Sep  2 2012 15:37:04
    Writing library                          : libebml v1.2.3 + libmatroska v1.3.0
     
    Video
    ID                                       : 1
    Format                                   : AVC
    Format/Info                              : Advanced Video Codec
    Format profile                           : High@L4.1
    Format settings, CABAC                   : Yes
    Format settings, ReFrames                : 4 frames
    Codec ID                                 : V_MPEG4/ISO/AVC
    Duration                                 : 1h 40mn
    Nominal bit rate                         : 10.5 Mbps
    Width                                    : 1 920 pixels
    Height                                   : 1 080 pixels
    Display aspect ratio                     : 16:9
    Frame rate mode                          : Constant
    Frame rate                               : 23.976 fps
    Color space                              : YUV
    Chroma subsampling                       : 4:2:0
    Bit depth                                : 8 bits
    Scan type                                : Progressive
    Bits/(Pixel*Frame)                       : 0.211
    Writing library                          : x264 core 128 r2216 198a7ea
    Encoding settings                        : cabac=1 / ref=4 / deblock=1:-3:-3 / analyse=0x3:0x113 / me=umh / subme=10 / psy=1 / psy_rd=1.20:0.00 / mixed_ref=1 / me_range=32 / chroma_me=1 / trellis=2 / 8x8dct=1 / cqm=0 / deadzone=21,11 / fast_pskip=0 / chroma_qp_offset=-2 / threads=12 / lookahead_threads=2 / sliced_threads=0 / nr=0 / decimate=1 / interlaced=0 / bluray_compat=0 / constrained_intra=0 / bframes=9 / b_pyramid=2 / b_adapt=2 / b_bias=0 / direct=3 / weightb=1 / open_gop=0 / weightp=2 / keyint=250 / keyint_min=23 / scenecut=40 / intra_refresh=0 / rc=2pass / mbtree=0 / bitrate=10500 / ratetol=1.0 / qcomp=0.60 / qpmin=0 / qpmax=69 / qpstep=4 / cplxblur=20.0 / qblur=0.5 / ip_ratio=1.40 / pb_ratio=1.30 / aq=1:1.10
    Language                                 : English
    Default                                  : Yes
    Forced                                   : No
     
    Audio
    ID                                       : 2
    Format                                   : DTS
    Format/Info                              : Digital Theater Systems
    Format profile                           : MA / Core
    Mode                                     : 16
    Format settings, Endianness              : Big
    Codec ID                                 : A_DTS
    Duration                                 : 1h 40mn
    Bit rate mode                            : Variable
    Bit rate                                 : Unknown / 1 509 Kbps
    Channel count                            : 6 channels
    Channel positions                        : Front: L C R, Side: L R, LFE
    Sampling rate                            : 48.0 KHz
    Bit depth                                : 24 bits
    Compression mode                         : Lossless / Lossy
    Language                                 : German
    Default                                  : Yes
    Forced                                   : Yes
     
    Text #1
    ID                                       : 3
    Format                                   : PGS
    Muxing mode                              : zlib
    Codec ID                                 : S_HDMV/PGS
    Codec ID/Info                            : The same subtitle format used on BDs/HD-DVDs
    Title                                    : normal
    Language                                 : German
    Default                                  : Yes
    Forced                                   : No
     
    Text #2
    ID                                       : 4
    Format                                   : VobSub
    Muxing mode                              : zlib
    Codec ID                                 : S_VOBSUB
    Codec ID/Info                            : The same subtitle format used on DVDs
    Title                                    : normal
    Language                                 : German
    Default                                  : No
    Forced                                   : No
     
    Menu
    00:00:00.000                             : en:00:00:00.000
    00:02:25.687                             : en:00:02:25.687
    00:05:34.876                             : en:00:05:34.876
    00:10:10.360                             : en:00:10:10.360
    00:14:23.946                             : en:00:14:23.946
    00:18:47.752                             : en:00:18:47.752
    00:22:43.028                             : en:00:22:43.028
    00:29:06.078                             : en:00:29:06.078
    00:36:03.078                             : en:00:36:03.078
    00:43:38.324                             : en:00:43:38.324
    00:49:06.861                             : en:00:49:06.861
    00:57:00.751                             : en:00:57:00.751
    01:01:27.684                             : en:01:01:27.684
    01:05:21.626                             : en:01:05:21.626
    01:09:33.669                             : en:01:09:33.669
    01:15:03.290                             : en:01:15:03.290
    01:22:32.948                             : en:01:22:32.948
    01:27:49.723                             : en:01:27:49.723
    01:31:44.958                             : en:01:31:44.958
    01:34:03.805                             : en:01:34:03.805
    Attached Files
    RK3288 Devices
    - Overview BOX (LINK !)
    - Overview STICK (Dongle) (LINK !)

    MINIX NEO: Z64 W/A - (Intel Z3735F); X8-H Plus - (Amlogic S812H); A2 Lite (sponsored by minix.com.hk)
    UGOOS UT3S (4/32GB with fan) - FW 2.0.6 - (RK3288) (sponsored by GearBest.com)
    Tronsmart Draco AW80 Meta (2/16GB) - FW v2.0rc3 - (Allwinner A80) (sponsored by GeekBuying.com)
    Beelink / UBOX R89 - FW 111k4110_1219 - (RK3288) (sponsored by Netxeon (Beelink))

    RK3188: pcb => "CH001 1332 TN-BX09_V2.1" (K-R42 / CS918...) => wasser KK 1.0.3 (old rev)
    Fly Mouse Mini Wireless Keyboard with 2 mode learning IR remote 'iPazzPort KP-810-16'

    #2
    USE at the link(s) to download the file...



    Code:
    Format                                   : Matroska
    Format version                           : Version 2
    File size                                : 9.89 GiB
    Duration                                 : 1h 56mn
    Overall bit rate                         : 12.2 Mbps
    Encoded date                             : UTC 2012-07-15 22:06:11
    Writing application                      : mkvmerge v3.4.0 ('Rapunzel') gebaut am May 15 2010 09:38:20
    Writing library                          : libebml v0.8.0 + libmatroska v0.9.0
     
    Video
    ID                                       : 1
    Format                                   : AVC
    Format/Info                              : Advanced Video Codec
    Format profile                           : High@L4.1
    Format settings, CABAC                   : Yes
    Format settings, ReFrames                : 5 frames
    Codec ID                                 : V_MPEG4/ISO/AVC
    Duration                                 : 1h 56mn
    Bit rate                                 : 8 897 Kbps
    Width                                    : 1 920 pixels
    Height                                   : 816 pixels
    Display aspect ratio                     : 2.35:1
    Frame rate mode                          : Constant
    Frame rate                               : 24.000 fps
    Color space                              : YUV
    Chroma subsampling                       : 4:2:0
    Bit depth                                : 8 bits
    Scan type                                : Progressive
    Bits/(Pixel*Frame)                       : 0.237
    Stream size                              : 7.24 GiB (73%)
    Title                                    : 1080p Pate
    Writing library                          : x264 core 125 r2200 999b753
    Encoding settings                        : cabac=1 / ref=5 / deblock=1:-1:-1 / analyse=0x3:0x113 / me=umh / subme=9 / psy=1 / psy_rd=1.10:0.00 / mixed_ref=1 / me_range=24 / chroma_me=1 / trellis=2 / 8x8dct=1 / cqm=0 / deadzone=21,11 / fast_pskip=0 / chroma_qp_offset=-2 / threads=12 / lookahead_threads=2 / sliced_threads=0 / nr=0 / decimate=1 / interlaced=0 / bluray_compat=0 / constrained_intra=0 / bframes=5 / b_pyramid=2 / b_adapt=1 / b_bias=0 / direct=3 / weightb=1 / open_gop=0 / weightp=1 / keyint=250 / keyint_min=23 / scenecut=40 / intra_refresh=0 / rc=crf / mbtree=0 / crf=18.0 / qcomp=0.60 / qpmin=16 / qpmax=69 / qpstep=4 / ip_ratio=1.40 / pb_ratio=1.30 / aq=1:1.00
    Language                                 : German
    Default                                  : Yes
    Forced                                   : Yes
     
    Audio #1
    ID                                       : 2
    Format                                   : DTS
    Format/Info                              : Digital Theater Systems
    Mode                                     : 16
    Format settings, Endianness              : Big
    Codec ID                                 : A_DTS
    Duration                                 : 1h 56mn
    Bit rate mode                            : Constant
    Bit rate                                 : 1 509 Kbps
    Channel count                            : 6 channels
    Channel positions                        : Front: L C R, Side: L R, LFE
    Sampling rate                            : 48.0 KHz
    Bit depth                                : 24 bits
    Compression mode                         : Lossy
    Stream size                              : 1.23 GiB (12%)
    Title                                    : DTS 5.1
    Language                                 : German
    Default                                  : Yes
    Forced                                   : Yes
     
    Audio #2
    ID                                       : 3
    Format                                   : DTS
    Format/Info                              : Digital Theater Systems
    Mode                                     : 16
    Format settings, Endianness              : Big
    Codec ID                                 : A_DTS
    Duration                                 : 1h 56mn
    Bit rate mode                            : Constant
    Bit rate                                 : 1 509 Kbps
    Channel count                            : 6 channels
    Channel positions                        : Front: L C R, Side: L R, LFE
    Sampling rate                            : 48.0 KHz
    Bit depth                                : 24 bits
    Compression mode                         : Lossy
    Stream size                              : 1.23 GiB (12%)
    Title                                    : DTS 5.1
    Language                                 : Norwegian
    Default                                  : No
    Forced                                   : No
     
    Text #1
    ID                                       : 4
    Format                                   : UTF-8
    Codec ID                                 : S_TEXT/UTF8
    Codec ID/Info                            : UTF-8 Plain Text
    Title                                    : Full Subs SRT
    Language                                 : German
    Default                                  : No
    Forced                                   : No
     
    Text #2
    ID                                       : 5
    Format                                   : VobSub
    Muxing mode                              : zlib
    Codec ID                                 : S_VOBSUB
    Codec ID/Info                            : The same subtitle format used on DVDs
    Title                                    : Full Subs VOBSUB
    Language                                 : German
    Default                                  : No
    Forced                                   : No
     
    Menu
    00:00:00.000                             : en:Chapter 00
    00:08:37.458                             : en:Chapter 01
    00:18:17.416                             : en:Chapter 02
    00:25:13.416                             : en:Chapter 03
    00:33:15.041                             : en:Chapter 04
    00:37:40.708                             : en:Chapter 05
    00:48:24.708                             : en:Chapter 06
    00:56:47.000                             : en:Chapter 07
    01:04:56.916                             : en:Chapter 08
    01:11:23.916                             : en:Chapter 09
    01:18:29.416                             : en:Chapter 10
    01:25:58.000                             : en:Chapter 11
    01:35:00.666                             : en:Chapter 12
    01:44:01.250                             : en:Chapter 13
    01:49:57.625                             : en:Chapter 14
    01:56:26.000                             : en:Chapter 15
    http://www.file-upload.net/download-...r-001.mkv.html
    http://www.file-upload.net/download-...some-.mkv.html



    Code:
    Format                                   : Matroska
    Format version                           : Version 4 / Version 2
    File size                                : 20.0 GiB
    Duration                                 : 2h 23mn
    Overall bit rate                         : 20.0 Mbps
    Encoded date                             : UTC 2013-10-24 16:02:54
    Writing application                      : mkvmerge v6.5.0 ('Isn't she lovely') built on Oct 20 2013 12:50:05
    Writing library                          : libebml v1.3.0 + libmatroska v1.4.1
     
    Video
    ID                                       : 1
    Format                                   : AVC
    Format/Info                              : Advanced Video Codec
    Format profile                           : High@L4.1
    Format settings, CABAC                   : Yes
    Format settings, ReFrames                : 5 frames
    Codec ID                                 : V_MPEG4/ISO/AVC
    Duration                                 : 2h 23mn
    Bit rate                                 : 17.9 Mbps
    Width                                    : 1 920 pixels
    Height                                   : 800 pixels
    Display aspect ratio                     : 2.40:1
    Frame rate mode                          : Constant
    Frame rate                               : 23.976 fps
    Color space                              : YUV
    Chroma subsampling                       : 4:2:0
    Bit depth                                : 8 bits
    Scan type                                : Progressive
    Bits/(Pixel*Frame)                       : 0.485
    Stream size                              : 17.5 GiB (87%)
    Writing library                          : x264 core 133 r2334 a3ac64b
    Encoding settings                        : cabac=1 / ref=5 / deblock=1:-3:-3 / analyse=0x3:0x113 / me=umh / subme=10 / psy=1 / psy_rd=1.20:0.00 / mixed_ref=1 / me_range=32 / chroma_me=1 / trellis=2 / 8x8dct=1 / cqm=0 / deadzone=21,11 / fast_pskip=0 / chroma_qp_offset=-2 / threads=12 / lookahead_threads=1 / sliced_threads=0 / nr=0 / decimate=1 / interlaced=0 / bluray_compat=0 / constrained_intra=0 / bframes=9 / b_pyramid=2 / b_adapt=2 / b_bias=0 / direct=3 / weightb=1 / open_gop=0 / weightp=2 / keyint=250 / keyint_min=23 / scenecut=40 / intra_refresh=0 / rc=2pass / mbtree=0 / bitrate=17850 / ratetol=1.0 / qcomp=0.60 / qpmin=0 / qpmax=69 / qpstep=4 / cplxblur=20.0 / qblur=0.5 / ip_ratio=1.40 / pb_ratio=1.30 / aq=1:1.10
    Language                                 : English
    Default                                  : Yes
    Forced                                   : No
     
    Audio #1
    ID                                       : 2
    Format                                   : AC-3
    Format/Info                              : Audio Coding 3
    Mode extension                           : CM (complete main)
    Format settings, Endianness              : Big
    Codec ID                                 : A_AC3
    Duration                                 : 2h 23mn
    Bit rate mode                            : Constant
    Bit rate                                 : 640 Kbps
    Channel count                            : 6 channels
    Channel positions                        : Front: L C R, Side: L R, LFE
    Sampling rate                            : 48.0 KHz
    Bit depth                                : 16 bits
    Compression mode                         : Lossy
    Stream size                              : 655 MiB (3%)
    Language                                 : German
    Default                                  : Yes
    Forced                                   : Yes
     
    Audio #2
    ID                                       : 3
    Format                                   : DTS
    Format/Info                              : Digital Theater Systems
    Mode                                     : 16
    Format settings, Endianness              : Big
    Codec ID                                 : A_DTS
    Duration                                 : 2h 23mn
    Bit rate mode                            : Constant
    Bit rate                                 : 1 509 Kbps
    Channel count                            : 6 channels
    Channel positions                        : Front: L C R, Side: L R, LFE
    Sampling rate                            : 48.0 KHz
    Bit depth                                : 24 bits
    Compression mode                         : Lossy
    Stream size                              : 1.51 GiB (8%)
    Language                                 : English
    Default                                  : No
    Forced                                   : No
     
    Text #1
    ID                                       : 4
    Format                                   : PGS
    Muxing mode                              : zlib
    Codec ID                                 : S_HDMV/PGS
    Codec ID/Info                            : The same subtitle format used on BDs/HD-DVDs
    Language                                 : German
    Default                                  : Yes
    Forced                                   : No
     
    Text #2
    ID                                       : 5
    Format                                   : VobSub
    Muxing mode                              : zlib
    Codec ID                                 : S_VOBSUB
    Codec ID/Info                            : The same subtitle format used on DVDs
    Language                                 : German
    Default                                  : No
    Forced                                   : No
     
    Text #3
    ID                                       : 6
    Format                                   : PGS
    Muxing mode                              : zlib
    Codec ID                                 : S_HDMV/PGS
    Codec ID/Info                            : The same subtitle format used on BDs/HD-DVDs
    Language                                 : English
    Default                                  : No
    Forced                                   : No
     
    Text #4
    ID                                       : 7
    Format                                   : VobSub
    Muxing mode                              : zlib
    Codec ID                                 : S_VOBSUB
    Codec ID/Info                            : The same subtitle format used on DVDs
    Language                                 : English
    Default                                  : No
    Forced                                   : No
     
    Menu
    00:00:00.000                             : de:00:00:00.000
    00:11:16.968                             : de:00:11:16.968
    00:20:01.450                             : de:00:20:01.450
    00:30:09.474                             : de:00:30:09.474
    00:39:21.609                             : de:00:39:21.609
    00:48:57.643                             : de:00:48:57.643
    00:59:03.415                             : de:00:59:03.415
    01:08:57.884                             : de:01:08:57.884
    01:17:35.109                             : de:01:17:35.109
    01:28:36.186                             : de:01:28:36.186
    01:40:47.792                             : de:01:40:47.792
    01:50:55.858                             : de:01:50:55.858
    02:00:53.580                             : de:02:00:53.580
    02:10:13.556                             : de:02:10:13.556
    02:12:49.920                             : de:02:12:49.920
    http://www.file-upload.net/download-...some-.mkv.html
    .
    RK3288 Devices
    - Overview BOX (LINK !)
    - Overview STICK (Dongle) (LINK !)

    MINIX NEO: Z64 W/A - (Intel Z3735F); X8-H Plus - (Amlogic S812H); A2 Lite (sponsored by minix.com.hk)
    UGOOS UT3S (4/32GB with fan) - FW 2.0.6 - (RK3288) (sponsored by GearBest.com)
    Tronsmart Draco AW80 Meta (2/16GB) - FW v2.0rc3 - (Allwinner A80) (sponsored by GeekBuying.com)
    Beelink / UBOX R89 - FW 111k4110_1219 - (RK3288) (sponsored by Netxeon (Beelink))

    RK3188: pcb => "CH001 1332 TN-BX09_V2.1" (K-R42 / CS918...) => wasser KK 1.0.3 (old rev)
    Fly Mouse Mini Wireless Keyboard with 2 mode learning IR remote 'iPazzPort KP-810-16'

    Comment


      #3
      I had a look at MKV 2 & 3 and could not see any stutter or lag using Kodi 14.0 default settings.
      O option showed no skipped or dropped frames.

      Maybe more noticeable when viewing a complete movie for an hour or two.

      Using the so called RKM.img (no longer available) pretty much standard and running ok i find.

      Draco is on 12~14 hours a days streaming either Vids or Music most of the day.

      Cheers
      tЯeboЯ
      Please consider
      Donating to Freaktab

      Comment


        #4
        Yes, you are right, seems to stutter at different time-codes and also seems to depend on how long the parts are...
        BUT I talk about stock rom and stock xbmc (only this helps Tronsmart to fix it) but at governor performance...
        Last but not least I don't often see (micro)stutters... and that's at "out of the box"
        RK3288 Devices
        - Overview BOX (LINK !)
        - Overview STICK (Dongle) (LINK !)

        MINIX NEO: Z64 W/A - (Intel Z3735F); X8-H Plus - (Amlogic S812H); A2 Lite (sponsored by minix.com.hk)
        UGOOS UT3S (4/32GB with fan) - FW 2.0.6 - (RK3288) (sponsored by GearBest.com)
        Tronsmart Draco AW80 Meta (2/16GB) - FW v2.0rc3 - (Allwinner A80) (sponsored by GeekBuying.com)
        Beelink / UBOX R89 - FW 111k4110_1219 - (RK3288) (sponsored by Netxeon (Beelink))

        RK3188: pcb => "CH001 1332 TN-BX09_V2.1" (K-R42 / CS918...) => wasser KK 1.0.3 (old rev)
        Fly Mouse Mini Wireless Keyboard with 2 mode learning IR remote 'iPazzPort KP-810-16'

        Comment

        Working...
        X