Announcement

Collapse

7 Year´s FREAKTAB

See more
See less

Tanix TX92 Amlogic S912 CPU Android 7.1 OS 2.4G / 5G WiFi 1000M LAN BT4.1

Collapse
X
  • Filter
  • Time
  • Show
Clear All
new posts

  • Originally posted by RASTAVIPER View Post

    What sort of test did u try?
    I tried Streaming Moonlight app with 5.1 configuration and play 5.1 videos through Kodi
    The videos are from here: https://thedigitaltheater.com/index.php/dts-trailers/
    Even Kodi show me than it is a 5.1 audio stream selected.

    Comment


    • Originally posted by hewell

      I tried Streaming Moonlight app with 5.1 configuration and play 5.1 videos through Kodi
      The videos are from here: https://thedigitaltheater.com/index.php/dts-trailers/
      Even Kodi show me than it is a 5.1 audio stream selected.
      And how you can tell if they are DTS or not?

      Sent from my ONEPLUS A3003 using Tapatalk

      Comment


      • Originally posted by RASTAVIPER View Post
        And how you can tell if they are DTS or not?

        Sent from my ONEPLUS A3003 using Tapatalk
        Because they are, now I have doble check it

        Audio
        ID : 2
        Format : DTS
        Format/Info : Digital Theater Systems
        Mode : 16
        Format settings, Endianness : Big
        Codec ID : A_DTS
        Duration : 21 s 355 ms
        Bit rate mode : Constant
        Bit rate : 1 510 kb/s
        Channel(s) : 6 channels
        Channel positions : Front: L C R, Side: L R, LFE
        Sampling rate : 48.0 kHz
        Frame rate : 93.750 FPS (512 spf)
        Bit depth : 24 bits
        Compression mode : Lossy
        Stream size : 3.84 MiB (8%)
        Default : No
        Forced : No

        and the Dobly one

        Audio
        ID : 2
        Format : AC-3
        Format/Info : Audio Coding 3
        Mode extension : CM (complete main)
        Format settings, Endianness : Big
        Codec ID : ac-3
        Duration : 1 min 3 s
        Bit rate mode : Constant
        Bit rate : 640 kb/s
        Channel(s) : 6 channels
        Channel positions : Front: L C R, Side: L R, LFE
        Sampling rate : 48.0 kHz
        Frame rate : 31.250 FPS (1536 spf)
        Bit depth : 16 bits
        Compression mode : Lossy
        Stream size : 4.85 MiB (13%)
        Encoded date : UTC 1970-01-01 00:00:00
        Tagged date : UTC 1970-01-01 00:00:00

        Comment

        Working...
        X